<?xml version="1.0" standalone="no"?>
<!DOCTYPE svg PUBLIC "-//W3C//DTD SVG 1.1//EN" "http://www.w3.org/Graphics/SVG/1.1/DTD/svg11.dtd" >
<svg xmlns="http://www.w3.org/2000/svg" xmlns:xlink="http://www.w3.org/1999/xlink" version="1.1">
<metadata>
Created by FontForge 20170731 at Sun Nov 15 21:04:09 2015
 By Aleksey,,,
Ailerons designed by Adilson Gonzales de Oliveira Junior. It's free for personal use only.
</metadata>
<defs>
<font id="Ailerons-Regular" horiz-adv-x="600" >
  <font-face 
    font-family="Ailerons"
    font-weight="400"
    font-stretch="normal"
    units-per-em="1000"
    panose-1="0 0 5 0 0 0 0 0 0 0"
    ascent="800"
    descent="-200"
    x-height="700"
    cap-height="700"
    bbox="0 -122 1017 815"
    underline-thickness="50"
    underline-position="-200"
    unicode-range="U+0020-2122"
  />
<missing-glyph horiz-adv-x="500" 
d="M0 0v700h500v-700h-500zM250 395l170 255h-340zM280 350l170 -255v510zM80 50h340l-170 255zM50 605v-510l170 255z" />
    <glyph glyph-name=".notdef" horiz-adv-x="500" 
d="M0 0v700h500v-700h-500zM250 395l170 255h-340zM280 350l170 -255v510zM80 50h340l-170 255zM50 605v-510l170 255z" />
    <glyph glyph-name=".null" horiz-adv-x="0" 
 />
    <glyph glyph-name="nonmarkingreturn" horiz-adv-x="333" 
 />
    <glyph glyph-name="space" unicode=" " 
 />
    <glyph glyph-name="exclam" unicode="!" horiz-adv-x="500" 
d="M236 148h-60q-5 0 -8 3t-4 6v3v540h50q9 0 15.5 -6.5t6.5 -15.5v-530zM164 88h60q5 0 8 -3t4 -5v-3v-77h-50q-20 0 -22 20v68z" />
    <glyph glyph-name="quotedbl" unicode="&#x22;" horiz-adv-x="500" 
d="M234 580v98q0 9 -6.5 15.5t-14.5 6.5h-27v-99q0 -8 6.5 -14.5t15.5 -6.5h26zM314 580h-26q-9 0 -15.5 6.5t-6.5 14.5v99h27q9 0 15 -6.5t6 -15.5v-98z" />
    <glyph glyph-name="numbersign" unicode="#" 
d="M371 323v-46h76v-27q0 -20 -22 -22h-54v-75h-26q-9 0 -15.5 6.5t-6.5 15.5v53h-46v-75h-27q-9 0 -15 6.5t-7 15.5v53h-75v27q0 9 6.5 15.5t15.5 6.5h53v46h-75v27q0 9 6.5 15t15.5 6h53v75h27q9 0 15.5 -6t6.5 -15v-54h46v75h27q20 0 22 -21v-54h75v-26q0 -9 -6.5 -15.5
t-15.5 -6.5h-54zM323 323h-46v-46h46v46z" />
    <glyph glyph-name="dollar" unicode="$" 
d="M384 528q-6 -3 -52 -24v52q0 16 -11 27t-27 11t-27 -11t-11 -27v-38q0 -18 8 -41.5t16 -38.5l7 -14l85 -161q16 -28 24 -56t8 -41v-14v-19q0 -33 -21 -58t-53 -30v-52h-50q-9 0 -15.5 6.5t-6.5 14.5v31q-32 5 -53 29.5t-21 57.5v47q0 30 19 38l53 24v-97q0 -16 11 -26.5
t27 -10.5t27 11t11 27v11q0 18 -8 41.5t-16 38.5l-7 14l-86 161q-16 28 -23.5 56t-7.5 41v14v42q0 33 21.5 59.5t52.5 31.5v52h50q9 0 15.5 -6.5t6.5 -14.5v-30q31 -6 52.5 -32.5t21.5 -58.5q-1 -29 -20 -37z" />
    <glyph glyph-name="percent" unicode="%" 
d="M429 723h-54q-18 0 -24 -24l-180 -722h54q18 0 24 24zM221 524h-50q-21 2 -21 21v68h59q5 0 8 -3t3 -6l1 -3v-77zM450 87h-50q-9 0 -15 6.5t-6 14.5v67h59q5 0 8 -2.5t4 -5.5v-3v-77z" />
    <glyph glyph-name="ampersand" unicode="&#x26;" 
d="M295 303l-22 -33q-39 -55 -39 -107v-62q0 -16 11 -27t27 -11h105l34 -63h-160q-37 0 -63 26t-26 63v75q0 60 39 119l58 86l-34 62q-16 28 -24 56t-8 41v14v71q0 36 25 64t61 29h45q36 0 62.5 -28t26.5 -65v-63q4 -55 -31 -119l-44 -64l201 -367h-79zM303 433l7 11
q31 44 31 102v59q0 16 -11 27t-27 11t-27 -11t-11 -27v-67q0 -18 8 -41.5t16 -38.5l8 -14z" />
    <glyph glyph-name="quotesingle" unicode="'" horiz-adv-x="500" 
d="M224 580v98q0 9 -6.5 15.5t-14.5 6.5h-27v-99q0 -8 6.5 -14.5t15.5 -6.5h26z" />
    <glyph glyph-name="parenleft" unicode="(" horiz-adv-x="500" 
d="M308 27q27 0 38 -20q3 -6 24 -52h-118q-4 0 -10.5 1t-17 13t-10.5 34v694q0 22 9.5 34t18.5 13l10 1h118l-24 -52q-11 -20 -38 -20h-11q-11 0 -11 -12v-622q0 -12 11 -12h11z" />
    <glyph glyph-name="parenright" unicode=")" horiz-adv-x="500" 
d="M144 745h118q4 0 10.5 -1t17 -13t10.5 -34v-694q0 -22 -9.5 -34t-18.5 -13l-10 -1h-118q21 46 24 52q11 20 38 20h11q11 0 11 12v622q0 12 -11 12h-11q-27 0 -38 20z" />
    <glyph glyph-name="plus" unicode="+" 
d="M431 325v-27q0 -9 -6.5 -15.5t-14.5 -6.5h-86v-107h-27q-8 0 -14.5 6.5t-6.5 15.5v85h-107v27q0 9 6 15t15 7h86v106h27q8 0 14.5 -6t6.5 -15v-85h107z" />
    <glyph glyph-name="comma" unicode="," horiz-adv-x="500" 
d="M236 88v-85q0 -27 -14 -42t-28 -17l-15 -1v21q9 0 13.5 7t4.5 13v7v9h-12q-8 0 -14 6.5t-7 14.5v56q0 11 12 11h60z" />
    <glyph glyph-name="hyphen" unicode="-" horiz-adv-x="410" 
d="M270 324v-26q0 -9 -6.5 -15.5t-15.5 -6.5h-108v27q0 8 6.5 14.5t15.5 6.5h108z" />
    <glyph glyph-name="period" unicode="." horiz-adv-x="500" 
d="M236 0h-51q-19 0 -21 20v68h60q5 0 8 -3t4 -5v-3v-77z" />
    <glyph glyph-name="slash" unicode="/" 
d="M429 723l-180 -721q-6 -24 -24 -24h-54l180 721q6 24 24 24h54z" />
    <glyph glyph-name="zero" unicode="0" 
d="M279 707h45q36 -2 61 -27.5t25 -61.5v-537q0 -36 -25 -61t-61 -27h-45q-37 0 -63 26t-26 62v537q0 37 26 63t63 26zM300 56q16 0 27 11t11 27v511q0 16 -11 27.5t-27 11.5t-27 -11.5t-11 -27.5v-511q0 -16 11 -27t27 -11z" />
    <glyph glyph-name="one" unicode="1" horiz-adv-x="560" 
d="M190 700h88q4 0 10.5 -0.5t17 -12.5t10.5 -35v-652h-50q-9 0 -15.5 6.5t-6.5 15.5v591q0 15 -13 17q-19 4 -25 18q-1 2 -6 22t-10 30z" />
    <glyph glyph-name="two" unicode="2" 
d="M294 644q-16 0 -27 -11t-11 -27v-82q-32 13 -53 24q-19 11 -19 39v31q0 37 26 63t63 26h42q37 0 63 -26t26 -63v-121q1 -49 -16 -85l-101 -230q-31 -67 -31 -99v-11h174q-16 -38 -23 -52q-11 -20 -39 -20h-184v61q-2 53 30 123l87 202q31 68 31 103v117q0 16 -11 27
t-27 11z" />
    <glyph glyph-name="three" unicode="3" 
d="M400 82v208q0 33 -25 60q25 27 25 61v207q0 36 -25 62t-62 27h-43q-37 0 -63.5 -26t-26.5 -63v-31q0 -29 20 -39q2 -1 10.5 -5t22 -9.5t19.5 -8.5v81q0 16 11 27t27 11t27 -11t11 -27v-186q-2 -14 -12.5 -24t-25.5 -10h-16v-50q1 -9 7 -15.5t15 -6.5q13 -2 22 -11.5
t10 -22.5v-186q0 -16 -11 -27t-27 -11t-27 11t-11 27v82q-8 -4 -20 -9.5t-21 -9.5t-11 -5q-20 -10 -20 -39v-31q0 -37 26.5 -63t63.5 -26h43q37 1 62 27t25 62z" />
    <glyph glyph-name="four" unicode="4" 
d="M361 204h74q-19 -44 -24 -55q-11 -21 -41 -21h-9v-128h-50q-9 0 -15 6t-7 15v107h-77q-28 0 -38 21l-27 52l137 477q6 22 25 22h52v-496zM289 440l-68 -236h68v236z" />
    <glyph glyph-name="five" unicode="5" 
d="M265 447h60q37 0 62.5 -25.5t26.5 -62.5v-278q0 -36 -25.5 -61t-61.5 -27h-45q-36 0 -62 26t-27 62v94q0 28 20 39q1 0 52 23v-143q0 -16 11 -27t27 -11t27.5 11t11.5 27v243q0 16 -11.5 27t-27.5 11h-73q-15 1 -25.5 11.5t-11.5 25.5v240q0 22 9.5 34t19.5 13l9 1h188
q-3 -7 -8.5 -19.5t-9.5 -21t-5 -11.5q-11 -20 -39 -20h-80q-12 0 -12 -12v-169z" />
    <glyph glyph-name="six" unicode="6" 
d="M261 448h52q48 0 72.5 -29t24.5 -70v-267q0 -37 -25 -62.5t-61 -26.5h-45q-37 0 -63 26t-26 63v535q0 37 26 63.5t63 26.5h44v-1q36 -1 61.5 -26.5t25.5 -62.5v-26q0 -33 -20 -43q-6 -3 -52 -24v1v80q0 16 -11 27t-27 11t-27.5 -11t-11.5 -27v-157zM338 94v250
q0 14 -11.5 24t-26.5 10h-39v-284q0 -16 11.5 -27.5t27.5 -11.5q15 0 26.5 12t11.5 27z" />
    <glyph glyph-name="seven" unicode="7" horiz-adv-x="584" 
d="M161 700h262q-5 -10 -13.5 -29.5t-31 -86t-39 -142t-30.5 -195.5t-14 -247h-50q-9 0 -15.5 6.5t-6.5 15.5q3 348 98 606h-97q-28 0 -39 20z" />
    <glyph glyph-name="eight" unicode="8" 
d="M379 350q6 -2 11 -5t8 -6t5.5 -9t3.5 -9.5t1.5 -10.5t0.5 -10v-10.5v-8.5v-199q0 -36 -25 -61.5t-61 -27.5h-47q-36 2 -61.5 27.5t-25.5 61.5v199q0 14 0.5 19.5t3 18.5t9.5 20.5t19 10.5q-32 10 -32 69v199q0 36 25.5 61.5t61.5 27.5h47q36 -2 61 -27.5t25 -61.5v-199
q0 -47 -15 -61q-6 -5 -15 -8zM337 416v189q0 16 -11 27.5t-27 11.5t-27 -11.5t-11 -27.5v-189q0 -16 11 -27t27 -11t27 11t11 27zM337 94v189q0 16 -11 27.5t-27 11.5t-27 -11.5t-11 -27.5v-189q0 -16 11 -27t27 -11t27 11t11 27z" />
    <glyph glyph-name="nine" unicode="9" 
d="M276 707h45q37 0 63 -26t26 -63v-536q0 -37 -26 -63t-63 -26h-44q-36 2 -61.5 27.5t-25.5 61.5v31q0 28 20 39q34 17 52 25v-82q0 -17 11 -28t27 -11t27 11.5t11 27.5v186h-48q-100 0 -100 101v236q0 36 25 62t61 27zM338 345v260q0 16 -11 27.5t-27 11.5
q-15 0 -25.5 -10t-12.5 -25v-227q0 -20 8.5 -28.5t29.5 -8.5h38z" />
    <glyph glyph-name="colon" unicode=":" horiz-adv-x="500" 
d="M236 261v68q-1 8 -7 14.5t-14 6.5h-51v-77q0 -12 12 -12h60zM164 88h60q5 0 8 -3t4 -5v-3v-77h-51q-19 0 -21 21v67z" />
    <glyph glyph-name="semicolon" unicode=";" 
d="M265 350h50q21 -2 21 -21v-68h-59q-5 0 -8 2.5t-3 5.5l-1 3v78zM335 88h-59q-6 0 -9 -3t-3 -5l-1 -3v-56q2 -21 22 -21h12v-9q2 -27 -19 -27v-21q6 0 15.5 1.5t25.5 16.5t16 42v85z" />
    <glyph glyph-name="equal" unicode="=" 
d="M431 364v-27q0 -8 -6.5 -14.5t-14.5 -6.5h-241v26q0 9 6.5 15.5t14.5 6.5h241zM431 284h-241q-8 0 -14.5 -6.5t-6.5 -15.5v-26h241q8 0 14.5 6t6.5 15v27z" />
    <glyph glyph-name="question" unicode="?" 
d="M405 498v119q0 37 -26 62.5t-63 25.5h-45q-36 -1 -61 -26.5t-25 -61.5v-31q0 -29 20 -38q6 -3 52 -24v82q0 16 11 26.5t27 10.5t27 -10.5t11 -26.5v-120q1 -17 -18 -75.5t-38 -108.5l-19 -50q-7 -14 -7 -31v-62q0 -12 12 -12h59v70l6 30l67 186q4 11 6.5 27.5t2.5 27.5z
M250 -1v77q0 11 13 11h59v-68q0 -8 -6.5 -14t-14.5 -6h-51z" />
    <glyph glyph-name="at" unicode="@" 
d="M529 203l45 -32q-35 -50 -110 -81t-144 -31q-141 0 -216 80q-82 85 -75 241q3 69 29.5 121.5t68 82t88 43.5t95.5 14q100 0 164.5 -62.5t64.5 -159.5q0 -51 -16 -94.5t-57.5 -77t-103.5 -35.5h-118q-30 0 -52 20.5t-22 49.5v36q1 28 23 48t51 20h5h52q13 0 22 8.5t9 21.5
t-9 21.5t-22 8.5h-105q12 31 19 42q6 15 30 15h63q29 0 50.5 -20t22.5 -48v-36q0 -27 -20 -47.5t-47 -22.5h-64q-12 0 -21 -8.5t-9 -21.5t9 -21.5t21 -8.5h116q38 2 64 20.5t36.5 45.5t14 46t3.5 38q0 74 -48.5 120.5t-125.5 46.5q-57 0 -100 -17.5t-66 -41.5t-37.5 -56
t-18 -53t-4.5 -41q-6 -130 60 -200q60 -62 176 -62q56 0 119 25t90 63z" />
    <glyph glyph-name="A" unicode="A" horiz-adv-x="560" 
d="M425 0l-101 662q-2 12 -4.5 19t-11 13t-22.5 6h-39l-106 -700h79l63 482l63 -482h79z" />
    <glyph glyph-name="B" unicode="B" 
d="M368 350q19 -6 29 -20t11 -26l1 -11v-205q-1 -37 -26.5 -62.5t-62.5 -25.5h-130v700h130q37 0 62.5 -25.5t26.5 -62.5v-205q0 -5 -1 -12.5t-11 -23t-29 -21.5zM337 424v168q0 36 -37 36h-39v-245h39q37 0 37 41zM337 108v169q0 40 -37 40h-39v-246h39q37 0 37 37z" />
    <glyph glyph-name="C" unicode="C" 
d="M412 251v-169q0 -36 -25 -61.5t-61 -27.5h-44q-37 0 -63.5 26t-26.5 63v536q0 37 26.5 63t63.5 26h44q36 -1 61 -27t25 -62v-107q0 -30 -19 -38l-52 -24v157q0 16 -11.5 27t-27.5 11t-27 -11t-11 -27v-511q0 -16 11 -27.5t27 -11.5t27.5 11t11.5 28v94q0 28 19 39
q3 1 11.5 5t21 9.5t19.5 8.5z" />
    <glyph glyph-name="D" unicode="D" 
d="M186 700h139q37 0 62.5 -25.5t26.5 -62.5v-524q-1 -37 -26.5 -62.5t-62.5 -25.5h-139v700zM343 108v484q0 36 -38 36h-47v-557h47q38 0 38 37z" />
    <glyph glyph-name="E" unicode="E" 
d="M291 71h150q-3 -7 -8.5 -19.5t-9.5 -21t-5 -11.5q-11 -19 -39 -19h-160v680q2 20 22 20h187l-24 -52q-9 -20 -38 -20h-58q-17 0 -17 -17v-208h108q-3 -7 -8.5 -19.5t-9.5 -21.5t-5 -12q-11 -19 -38 -19h-30q-7 0 -12 -5t-5 -12v-243z" />
    <glyph glyph-name="F" unicode="F" 
d="M237 700h208q-10 -27 -23 -52q-11 -20 -38 -20h-80q-7 0 -12 -5t-5 -12v-218h128l-24 -52q-11 -20 -38 -20h-48q-18 0 -18 -17v-283q0 -9 -6.5 -15t-14.5 -6h-50v679q0 8 6 14.5t15 6.5z" />
    <glyph glyph-name="G" unicode="G" 
d="M410 618v-109q0 -29 -20 -39q-12 -7 -52 -24v160q0 16 -11 27t-27 11t-27 -11t-11 -27v-512q0 -16 11 -27t27 -11t27 11t11 27v209h-3q-7 0 -13.5 6t-9.5 11l-3 6l-24 50h90q35 0 35 -39v-255q0 -36 -25.5 -61.5t-61.5 -27.5h-44q-37 0 -63 26t-26 63v536q0 37 26 63
t63 26h44q36 -2 61.5 -27.5t25.5 -61.5z" />
    <glyph glyph-name="H" unicode="H" 
d="M348 700h43q15 0 22 -8.5t7 -19.5v-672h-72v305q-2 16 -17 16h-78v-321h-72v672q0 11 7 19.5t22 8.5h43v-283q0 -14 6 -19.5t19 -5.5h70v308z" />
    <glyph glyph-name="I" unicode="I" horiz-adv-x="500" 
d="M214 700h43q14 0 21.5 -8.5t7.5 -19.5v-672h-51q-18 0 -21 15v685z" />
    <glyph glyph-name="J" unicode="J" horiz-adv-x="550" 
d="M287 700h43q15 0 22 -8.5t7 -19.5v-590q0 -36 -25 -61.5t-61 -26.5v-1h-45q-37 0 -62 26t-25 63v14q0 30 20 38q5 3 50 23v-63q0 -16 11 -27t27 -11t27 11t11 27v606z" />
    <glyph glyph-name="K" unicode="K" 
d="M448 0h-75l-96 313v-313h-71v673q0 24 23 27h48v-255l88 253h75l-113 -315z" />
    <glyph glyph-name="L" unicode="L" horiz-adv-x="550" 
d="M283 71h162q-3 -7 -8.5 -19.5t-9.5 -21t-5 -11.5q-11 -19 -39 -19h-172v700h50q22 -2 22 -22v-607z" />
    <glyph glyph-name="M" unicode="M" horiz-adv-x="620" 
d="M467 700v-700h-71v361l-54 -240h-22q-39 0 -53 54q-1 2 -1 3l-42 183v-361h-71v700h44q12 0 20 -6.5t10 -13.5l2 -6l83 -402l79 403q8 25 32 25h44z" />
    <glyph glyph-name="N" unicode="N" 
d="M415 700v-700h-33q-18 0 -29 9.5t-14 16.5t-5 19l-77 346v-391h-72v700h33q27 0 37 -10t14 -29l74 -364v403h72z" />
    <glyph glyph-name="O" unicode="O" 
d="M274 707h55q36 -2 61.5 -27.5t25.5 -61.5v-537q-1 -36 -26 -61t-61 -27h-55q-37 0 -63 26t-27 62v537q0 37 26.5 63t63.5 26zM294 56h11q16 0 27 11.5t11 27.5v510q0 16 -11 27.5t-27 11.5h-11q-16 -1 -27 -12t-11 -27v-510q0 -16 11 -27t27 -12z" />
    <glyph glyph-name="P" unicode="P" 
d="M209 700h125q36 0 63.5 -26t27.5 -62v-181q0 -53 -26 -85t-76 -32h-43v-314h-51q-20 0 -20 15v685zM356 415v184q-2 14 -12.5 24t-25.5 10h-38v-252h38q15 0 25.5 10t12.5 24z" />
    <glyph glyph-name="Q" unicode="Q" 
d="M433 -5h-57q-8 0 -17 17q-14 -18 -54 -18h-49q-37 0 -63 26t-26 63v536q0 37 26 63t63 26h54q36 -1 61.5 -27t25.5 -62v-547zM325 145v462q0 16 -11 27t-27 11h-11q-15 0 -26 -11t-11 -27v-511q0 -16 11 -27t27 -11h10q21 0 33 16l-21 42q-6 14 -1.5 20.5t12.5 7.5l8 1h7
z" />
    <glyph glyph-name="R" unicode="R" 
d="M408 0h-72v256q0 45 -37 45h-38v-301h-72v700h131q36 0 62 -25.5t26 -62.5v-216q3 -55 -26 -62q12 -6 18.5 -22.5t7.5 -29.5v-14v-268zM261 369h38q37 0 37 40v188q0 36 -37 36h-38v-264z" />
    <glyph glyph-name="S" unicode="S" 
d="M391 548q-21 -11 -53 -24v81q0 16 -11 27.5t-27 11.5t-27 -11.5t-11 -27.5v-67q0 -18 8 -41.5t16 -38.5l7 -14l86 -162q16 -28 24 -56t8 -42v-13v-89q0 -37 -26.5 -63t-63.5 -26h-45q-36 1 -61 27t-26 62v72q0 28 20 39q5 2 53 23v-122q0 -16 11 -27t27 -11t27 11.5
t11 27.5v80q0 18 -8 42t-16 39l-7 14l-86 161q-16 28 -24 56t-8 41v14v72q0 37 26.5 65t63.5 28h45q36 -1 61.5 -29t25.5 -64v-27q0 -28 -20 -39z" />
    <glyph glyph-name="T" unicode="T" horiz-adv-x="550" 
d="M441 700l-24 -52q-8 -19 -38 -19h-56q-16 0 -18 -17v-612h-51q-20 0 -20 15v614h-101v49q0 9 6.5 15.5t15.5 6.5h286z" />
    <glyph glyph-name="U" unicode="U" 
d="M415 700v-618q0 -36 -25 -60t-61 -25v-1h-55q-37 0 -63 25t-26 61v598q2 20 21 20h51v-605q0 -16 10.5 -27t26.5 -11h11q16 0 27 11t11 27v605h72z" />
    <glyph glyph-name="V" unicode="V" horiz-adv-x="584" 
d="M435 700l-107 -700h-31h-5q-35 0 -43 49l-100 651h55q16 0 21 -27l67 -439l71 466h72z" />
    <glyph glyph-name="W" unicode="W" horiz-adv-x="620" 
d="M511 700l-85 -700h-67l-49 355l-48 -355h-66l-87 700h55q19 0 22 -15l48 -383l35 242q3 32 15.5 44t46.5 12h9l47 -298l46 384q3 14 21 14h57z" />
    <glyph glyph-name="X" unicode="X" 
d="M234 0l72 254l65 -254h78l-104 370l90 330h-56q-21 0 -28 -24l-48 -186l-51 186q-7 24 -28 24h-56l94 -329l-111 -371h83z" />
    <glyph glyph-name="Y" unicode="Y" horiz-adv-x="550" 
d="M397 700l-86 -409v-291h-51q-19 0 -21 21v270l-86 409h53q3 0 6.5 -1t9.5 -7t7 -16l46 -265l46 265q1 10 7 16t9.5 7t6.5 1h53z" />
    <glyph glyph-name="Z" unicode="Z" 
d="M449 700l-207 -610q-5 -19 13 -19h195l-23 -51q-10 -20 -38 -20h-261l206 611q4 17 -14 17h-81q-28 0 -39 20q-1 3 -5 11.5t-9.5 21t-8.5 19.5h272z" />
    <glyph glyph-name="bracketleft" unicode="[" horiz-adv-x="500" 
d="M308 27q27 0 38 -20q3 -6 24 -52h-118q-4 0 -10.5 1t-17 13t-10.5 34v694q0 22 9.5 34t18.5 13l10 1h118l-24 -52q-11 -20 -38 -20h-11q-11 0 -11 -12v-622q0 -12 11 -12h11z" />
    <glyph glyph-name="backslash" unicode="\" 
d="M171 723h54q18 0 24 -24l180 -721h-54q-18 0 -24 24z" />
    <glyph glyph-name="bracketright" unicode="]" horiz-adv-x="500" 
d="M144 745h118q4 0 10.5 -1t17 -13t10.5 -34v-694q0 -22 -9.5 -34t-18.5 -13l-10 -1h-118q21 46 24 52q11 20 38 20h11q11 0 11 12v622q0 12 -11 12h-11q-27 0 -38 20z" />
    <glyph glyph-name="underscore" unicode="_" 
d="M444 48v-26q0 -9 -6.5 -15.5t-14.5 -6.5h-267v27q0 8 6.5 14.5t14.5 6.5h267z" />
    <glyph glyph-name="grave" unicode="`" 
d="M262 730h54l7 8l-21 54q-9 23 -35 23h-44z" />
    <glyph glyph-name="a" unicode="a" horiz-adv-x="560" 
d="M422 0l-101 662q-2 12 -4.5 19t-11 13t-22.5 6h-39l-106 -700h79l63 482l63 -482h79z" />
    <glyph glyph-name="b" unicode="b" 
d="M368 350q19 -6 29 -20t11 -26l1 -11v-205q-1 -37 -26.5 -62.5t-62.5 -25.5h-130v700h130q37 0 62.5 -25.5t26.5 -62.5v-205q0 -5 -1 -12.5t-11 -23t-29 -21.5zM337 424v168q0 36 -37 36h-39v-245h39q37 0 37 41zM337 108v169q0 40 -37 40h-39v-246h39q37 0 37 37z" />
    <glyph glyph-name="c" unicode="c" 
d="M412 251v-169q0 -36 -25 -61.5t-61 -27.5h-44q-37 0 -63.5 26t-26.5 63v536q0 37 26.5 63t63.5 26h44q36 -1 61 -27t25 -62v-107q0 -30 -19 -38l-52 -24v157q0 16 -11.5 27t-27.5 11t-27 -11t-11 -27v-511q0 -16 11 -27.5t27 -11.5t27.5 11t11.5 28v94q0 28 19 39
q3 1 11.5 5t21 9.5t19.5 8.5z" />
    <glyph glyph-name="d" unicode="d" 
d="M186 700h139q37 0 62.5 -25.5t26.5 -62.5v-524q-1 -37 -26.5 -62.5t-62.5 -25.5h-139v700zM343 108v484q0 36 -38 36h-47v-557h47q38 0 38 37z" />
    <glyph glyph-name="e" unicode="e" 
d="M291 71h150q-3 -7 -8.5 -19.5t-9.5 -21t-5 -11.5q-11 -19 -39 -19h-160v680q2 20 22 20h187l-24 -52q-9 -20 -38 -20h-58q-17 0 -17 -17v-208h108q-3 -7 -8.5 -19.5t-9.5 -21.5t-5 -12q-11 -19 -38 -19h-30q-7 0 -12 -5t-5 -12v-243z" />
    <glyph glyph-name="f" unicode="f" 
d="M237 700h208q-10 -27 -23 -52q-11 -20 -38 -20h-80q-7 0 -12 -5t-5 -12v-218h128l-24 -52q-11 -20 -38 -20h-48q-18 0 -18 -17v-283q0 -9 -6.5 -15t-14.5 -6h-50v679q0 8 6 14.5t15 6.5z" />
    <glyph glyph-name="g" unicode="g" 
d="M410 618v-109q0 -29 -20 -39q-12 -7 -52 -24v160q0 16 -11 27t-27 11t-27 -11t-11 -27v-512q0 -16 11 -27t27 -11t27 11t11 27v209h-3q-7 0 -13.5 6t-9.5 11l-3 6l-24 50h90q35 0 35 -39v-255q0 -36 -25.5 -61.5t-61.5 -27.5h-44q-37 0 -63 26t-26 63v536q0 37 26 63
t63 26h44q36 -2 61.5 -27.5t25.5 -61.5z" />
    <glyph glyph-name="h" unicode="h" 
d="M348 700h43q15 0 22 -8.5t7 -19.5v-672h-72v305q-2 16 -17 16h-78v-321h-72v672q0 11 7 19.5t22 8.5h43v-283q0 -14 6 -19.5t19 -5.5h70v308z" />
    <glyph glyph-name="i" unicode="i" horiz-adv-x="500" 
d="M214 700h43q14 0 21.5 -8.5t7.5 -19.5v-672h-51q-18 0 -21 15v685z" />
    <glyph glyph-name="j" unicode="j" horiz-adv-x="550" 
d="M287 700h43q15 0 22 -8.5t7 -19.5v-590q0 -36 -25 -61.5t-61 -26.5v-1h-45q-37 0 -62 26t-25 63v14q0 30 20 38q5 3 50 23v-63q0 -16 11 -27t27 -11t27 11t11 27v606z" />
    <glyph glyph-name="k" unicode="k" 
d="M448 0h-75l-96 313v-313h-71v673q0 24 23 27h48v-255l88 253h75l-113 -315z" />
    <glyph glyph-name="l" unicode="l" horiz-adv-x="550" 
d="M283 71h162q-3 -7 -8.5 -19.5t-9.5 -21t-5 -11.5q-11 -19 -39 -19h-172v700h50q22 -2 22 -22v-607z" />
    <glyph glyph-name="m" unicode="m" horiz-adv-x="620" 
d="M467 700v-700h-71v361l-54 -240h-22q-39 0 -53 54q-1 2 -1 3l-42 183v-361h-71v700h44q12 0 20 -6.5t10 -13.5l2 -6l83 -402l79 403q8 25 32 25h44z" />
    <glyph glyph-name="n" unicode="n" 
d="M415 700v-700h-33q-18 0 -29 9.5t-14 16.5t-5 19l-77 346v-391h-72v700h33q27 0 37 -10t14 -29l74 -364v403h72z" />
    <glyph glyph-name="o" unicode="o" 
d="M274 707h55q36 -2 61.5 -27.5t25.5 -61.5v-537q-1 -36 -26 -61t-61 -27h-55q-37 0 -63 26t-27 62v537q0 37 26.5 63t63.5 26zM294 56h11q16 0 27 11.5t11 27.5v510q0 16 -11 27.5t-27 11.5h-11q-16 -1 -27 -12t-11 -27v-510q0 -16 11 -27t27 -12z" />
    <glyph glyph-name="p" unicode="p" 
d="M209 700h125q36 0 63.5 -26t27.5 -62v-181q0 -53 -26 -85t-76 -32h-43v-314h-51q-20 0 -20 15v685zM356 415v184q-2 14 -12.5 24t-25.5 10h-38v-252h38q15 0 25.5 10t12.5 24z" />
    <glyph glyph-name="q" unicode="q" 
d="M433 -5h-57q-8 0 -17 17q-14 -18 -54 -18h-49q-37 0 -63 26t-26 63v536q0 37 26 63t63 26h54q36 -1 61.5 -27t25.5 -62v-547zM325 145v462q0 16 -11 27t-27 11h-11q-15 0 -26 -11t-11 -27v-511q0 -16 11 -27t27 -11h10q21 0 33 16l-21 42q-6 14 -1.5 20.5t12.5 7.5l8 1h7
z" />
    <glyph glyph-name="r" unicode="r" 
d="M408 0h-72v256q0 45 -37 45h-38v-301h-72v700h131q36 0 62 -25.5t26 -62.5v-216q3 -55 -26 -62q12 -6 18.5 -22.5t7.5 -29.5v-14v-268zM261 369h38q37 0 37 40v188q0 36 -37 36h-38v-264z" />
    <glyph glyph-name="s" unicode="s" 
d="M391 548q-21 -11 -53 -24v81q0 16 -11 27.5t-27 11.5t-27 -11.5t-11 -27.5v-67q0 -18 8 -41.5t16 -38.5l7 -14l86 -162q16 -28 24 -56t8 -42v-13v-89q0 -37 -26.5 -63t-63.5 -26h-45q-36 1 -61 27t-26 62v72q0 28 20 39q5 2 53 23v-122q0 -16 11 -27t27 -11t27 11.5
t11 27.5v80q0 18 -8 42t-16 39l-7 14l-86 161q-16 28 -24 56t-8 41v14v72q0 37 26.5 65t63.5 28h45q36 -1 61.5 -29t25.5 -64v-27q0 -28 -20 -39z" />
    <glyph glyph-name="t" unicode="t" horiz-adv-x="550" 
d="M441 700l-24 -52q-8 -19 -38 -19h-56q-16 0 -18 -17v-612h-51q-20 0 -20 15v614h-101v49q0 9 6.5 15.5t15.5 6.5h286z" />
    <glyph glyph-name="u" unicode="u" 
d="M415 700v-618q0 -36 -25 -60t-61 -25v-1h-55q-37 0 -63 25t-26 61v598q2 20 21 20h51v-605q0 -16 10.5 -27t26.5 -11h11q16 0 27 11t11 27v605h72z" />
    <glyph glyph-name="v" unicode="v" horiz-adv-x="584" 
d="M435 700l-107 -700h-31h-5q-35 0 -43 49l-100 651h55q16 0 21 -27l67 -439l71 466h72z" />
    <glyph glyph-name="w" unicode="w" horiz-adv-x="620" 
d="M511 700l-85 -700h-67l-49 355l-48 -355h-66l-87 700h55q19 0 22 -15l48 -383l35 242q3 32 15.5 44t46.5 12h9l47 -298l46 384q3 14 21 14h57z" />
    <glyph glyph-name="x" unicode="x" 
d="M234 0l72 254l65 -254h78l-104 370l90 330h-56q-21 0 -28 -24l-48 -186l-51 186q-7 24 -28 24h-56l94 -329l-111 -371h83z" />
    <glyph glyph-name="y" unicode="y" horiz-adv-x="550" 
d="M397 700l-86 -409v-291h-51q-19 0 -21 21v270l-86 409h53q3 0 6.5 -1t9.5 -7t7 -16l46 -265l46 265q1 10 7 16t9.5 7t6.5 1h53z" />
    <glyph glyph-name="z" unicode="z" 
d="M449 700l-207 -610q-5 -19 13 -19h195l-23 -51q-10 -20 -38 -20h-261l206 611q4 17 -14 17h-81q-28 0 -39 20q-1 3 -5 11.5t-9.5 21t-8.5 19.5h272z" />
    <glyph glyph-name="exclamdown" unicode="&#xa1;" horiz-adv-x="500" 
d="M236 512h-60q-5 0 -8 3t-4 5v3v77h50q20 0 22 -20v-68zM164 452h60q5 0 8 -3t4 -6v-3v-540h-50q-9 0 -15.5 6.5t-6.5 15.5v530z" />
    <glyph glyph-name="cent" unicode="&#xa2;" 
d="M390 491q-6 -3 -52 -24v87q0 16 -11 27t-27 11t-27 -11t-11 -27v-407q0 -16 11 -27.5t27 -11.5t27 11.5t11 27.5v24q0 30 20 39l52 24v-100q0 -33 -21 -57.5t-53 -29.5v-54h-50q-9 0 -15.5 6.5t-6.5 14.5v32q-32 6 -53 30.5t-21 57.5v432q0 33 21 58t53 30v53h50
q9 0 15.5 -6.5t6.5 -14.5v-32q32 -5 53 -30t21 -58v-36q0 -29 -20 -39z" />
    <glyph glyph-name="sterling" unicode="&#xa3;" 
d="M463 71l-24 -53q-8 -18 -35 -18h-253q63 109 83 202q15 68 10 115h-68v50q0 9 6 15.5t15 6.5h29q-12 30 -14 38q-16 50 -19 97q-1 4 -1 10v79q0 37 25 64.5t61 28.5h48q36 -1 61 -28.5t25 -64.5v-26q0 -28 -19 -39q-1 -1 -21.5 -10t-31.5 -14v81q0 16 -11 27t-27 11
t-27 -11t-11 -27v-74q-1 -18 3 -38.5t8 -33.5t12.5 -36.5t11.5 -33.5h107v-50q0 -9 -6 -15.5t-15 -6.5h-70q10 -101 -43 -229q-2 -7 1.5 -12t10.5 -5h179z" />
    <glyph glyph-name="acute" unicode="&#xb4;" 
d="M272 731h44q26 0 35 23l21 54q1 4 -0.5 5.5t-3.5 1.5h-3h-54z" />
    <glyph glyph-name="periodcentered" unicode="&#xb7;" horiz-adv-x="500" 
d="M236 256h-51q-19 0 -21 21v67h60q5 0 8 -3t4 -5v-3v-77z" />
    <glyph glyph-name="cedilla" unicode="&#xb8;" 
d="M315 3v-18q39 -9 39 -51q0 -28 -19.5 -41.5t-38.5 -13.5h-20l1 8q2 13 13 14q9 1 17 9t7 20q0 12 -8.5 20.5t-20.5 8.5h-4v44h34z" />
    <glyph glyph-name="questiondown" unicode="&#xbf;" 
d="M350 606v-77q0 -11 -13 -11h-59v68q0 8 6.5 14t14.5 6h51zM195 107v-119q0 -37 26 -62.5t63 -25.5h45q36 1 61 26.5t25 61.5v31q0 29 -20 38q-6 3 -52 24v-82q0 -16 -11 -26.5t-27 -10.5t-27 10.5t-11 26.5v120q-1 17 18 75.5t38 108.5l19 50q7 14 7 31v62q0 12 -12 12
h-59v-70l-6 -30l-67 -186q-4 -11 -6.5 -27.5t-2.5 -26.5z" />
    <glyph glyph-name="Agrave" unicode="&#xc0;" horiz-adv-x="560" 
d="M240 730h54l7 8l-21 54q-9 23 -35 23h-44zM422 0l-101 662q-2 12 -4.5 19t-11 13t-22.5 6h-39l-106 -700h79l63 482l63 -482h79z" />
    <glyph glyph-name="Aacute" unicode="&#xc1;" horiz-adv-x="560" 
d="M250 731h44q26 0 35 23l21 54q1 4 -0.5 5.5t-3.5 1.5h-3h-54zM422 0l-101 662q-2 12 -4.5 19t-11 13t-22.5 6h-39l-106 -700h79l63 482l63 -482h79z" />
    <glyph glyph-name="Acircumflex" unicode="&#xc2;" horiz-adv-x="560" 
d="M194 731h29q23 0 38 23l16 22l15 -22q15 -23 39 -23h29l-58 84h-50zM422 0l-101 662q-2 12 -4.5 19t-11 13t-22.5 6h-39l-106 -700h79l63 482l63 -482h79z" />
    <glyph glyph-name="Atilde" unicode="&#xc3;" horiz-adv-x="560" 
d="M187 731h29l10 7q3 26 52 6q2 -1 3 -1q27 -11 45 -6t23 19t8 29t0 24h-28q-11 2 -11 -10q-1 -19 -13.5 -20.5t-37.5 9.5q-43 14 -60.5 1.5t-18.5 -35.5zM422 0l-101 662q-2 12 -4.5 19t-11 13t-22.5 6h-39l-106 -700h79l63 482l63 -482h79z" />
    <glyph glyph-name="Ccedilla" unicode="&#xc7;" 
d="M392 472q-1 0 -52 -23v156q0 16 -11 27.5t-27 11.5t-27 -11.5t-11 -27.5v-511q0 -16 11 -27t27 -11t27 11t11 27v95q0 28 20 39q1 0 52 23v-169q0 -36 -25.5 -61.5t-61.5 -27.5h-8v-9q39 -9 39 -51q0 -28 -19.5 -41.5t-38.5 -13.5h-20l1 8q2 13 13 14q9 1 17 9t7 20
q0 12 -8.5 20.5t-19.5 8.5h-5v35h-2q-37 0 -63 26t-26 63v536q0 37 26 63t63 26h44q36 -2 61.5 -27.5t25.5 -61.5v-107q0 -28 -20 -39z" />
    <glyph glyph-name="Egrave" unicode="&#xc8;" 
d="M290 730h54l7 8l-21 54q-9 23 -35 23h-44zM291 71h150q-3 -7 -8.5 -19.5t-9.5 -21t-5 -11.5q-11 -19 -39 -19h-160v680q2 20 22 20h187l-24 -52q-9 -20 -38 -20h-58q-17 0 -17 -17v-208h108q-3 -7 -8.5 -19.5t-9.5 -21.5t-5 -12q-11 -19 -38 -19h-30q-7 0 -12 -5t-5 -12
v-243z" />
    <glyph glyph-name="Eacute" unicode="&#xc9;" 
d="M292 731h44q26 0 35 23l21 54q1 4 -0.5 5.5t-3.5 1.5h-3h-54zM291 71h150q-3 -7 -8.5 -19.5t-9.5 -21t-5 -11.5q-11 -19 -39 -19h-160v680q2 20 22 20h187l-24 -52q-9 -20 -38 -20h-58q-17 0 -17 -17v-208h108q-3 -7 -8.5 -19.5t-9.5 -21.5t-5 -12q-11 -19 -38 -19h-30
q-7 0 -12 -5t-5 -12v-243z" />
    <glyph glyph-name="Ecircumflex" unicode="&#xca;" 
d="M244 731h29q23 0 38 23l16 22l15 -22q15 -23 39 -23h29l-58 84h-50zM291 71h150q-3 -7 -8.5 -19.5t-9.5 -21t-5 -11.5q-11 -19 -39 -19h-160v680q2 20 22 20h187l-24 -52q-9 -20 -38 -20h-58q-17 0 -17 -17v-208h108q-3 -7 -8.5 -19.5t-9.5 -21.5t-5 -12q-11 -19 -38 -19
h-30q-7 0 -12 -5t-5 -12v-243z" />
    <glyph glyph-name="Igrave" unicode="&#xcc;" horiz-adv-x="500" 
d="M213 730h54l7 8l-21 54q-9 23 -35 23h-44zM214 700h43q14 0 21.5 -8.5t7.5 -19.5v-672h-51q-18 0 -21 15v685z" />
    <glyph glyph-name="Iacute" unicode="&#xcd;" horiz-adv-x="500" 
d="M217 731h44q26 0 35 23l21 54q1 4 -0.5 5.5t-4.5 1.5h-2h-54zM214 700h43q14 0 21.5 -8.5t7.5 -19.5v-672h-51q-18 0 -21 15v685z" />
    <glyph glyph-name="Icircumflex" unicode="&#xce;" horiz-adv-x="500" 
d="M163 731h29q23 0 38 23l16 22l15 -22q15 -23 39 -23h29l-58 84h-50zM214 700h43q14 0 21.5 -8.5t7.5 -19.5v-672h-51q-18 0 -21 15v685z" />
    <glyph glyph-name="Ntilde" unicode="&#xd1;" 
d="M217 731h29l10 7q3 26 52 6q2 -1 3 -1q27 -11 45 -6t23 19t8 29t0 24h-28q-11 2 -11 -10q-1 -19 -13.5 -20.5t-37.5 9.5q-43 14 -60.5 1.5t-18.5 -35.5zM415 700v-700h-33q-18 0 -29 9.5t-14 16.5t-5 19l-77 346v-391h-72v700h33q27 0 37 -10t14 -29l74 -364v403h72z" />
    <glyph glyph-name="Ograve" unicode="&#xd2;" 
d="M262 730h54l7 8l-21 54q-9 23 -35 23h-44zM274 707h55q36 -2 61.5 -27.5t25.5 -61.5v-537q-1 -36 -26 -61t-61 -27h-55q-37 0 -63 26t-27 62v537q0 37 26.5 63t63.5 26zM294 56h11q16 0 27 11.5t11 27.5v510q0 16 -11 27.5t-27 11.5h-11q-16 -1 -27 -12t-11 -27v-510
q0 -16 11 -27t27 -12z" />
    <glyph glyph-name="Oacute" unicode="&#xd3;" 
d="M272 731h44q26 0 35 23l21 54q1 4 -0.5 5.5t-3.5 1.5h-3h-54zM274 707h55q36 -2 61.5 -27.5t25.5 -61.5v-537q-1 -36 -26 -61t-61 -27h-55q-37 0 -63 26t-27 62v537q0 37 26.5 63t63.5 26zM294 56h11q16 0 27 11.5t11 27.5v510q0 16 -11 27.5t-27 11.5h-11
q-16 -1 -27 -12t-11 -27v-510q0 -16 11 -27t27 -12z" />
    <glyph glyph-name="Ocircumflex" unicode="&#xd4;" 
d="M217 731h29q23 0 38 23l16 22l15 -22q15 -23 39 -23h29l-58 84h-50zM274 707h55q36 -2 61.5 -27.5t25.5 -61.5v-537q-1 -36 -26 -61t-61 -27h-55q-37 0 -63 26t-27 62v537q0 37 26.5 63t63.5 26zM294 56h11q16 0 27 11.5t11 27.5v510q0 16 -11 27.5t-27 11.5h-11
q-16 -1 -27 -12t-11 -27v-510q0 -16 11 -27t27 -12z" />
    <glyph glyph-name="Otilde" unicode="&#xd5;" 
d="M211 731h29l10 7q3 26 52 6q2 -1 3 -1q27 -11 45 -6t23 19t8 29t0 24h-28q-11 2 -11 -10q-1 -19 -13.5 -20.5t-37.5 9.5q-43 14 -60.5 1.5t-18.5 -35.5zM274 707h55q36 -2 61.5 -27.5t25.5 -61.5v-537q-1 -36 -26 -61t-61 -27h-55q-37 0 -63 26t-27 62v537q0 37 26.5 63
t63.5 26zM294 56h11q16 0 27 11.5t11 27.5v510q0 16 -11 27.5t-27 11.5h-11q-16 -1 -27 -12t-11 -27v-510q0 -16 11 -27t27 -12z" />
    <glyph glyph-name="Ugrave" unicode="&#xd9;" 
d="M262 730h54l7 8l-21 54q-9 23 -35 23h-44zM415 700v-618q0 -36 -25 -60t-61 -25v-1h-55q-37 0 -63 25t-26 61v598q2 20 21 20h51v-605q0 -16 10.5 -27t26.5 -11h11q16 0 27 11t11 27v605h72z" />
    <glyph glyph-name="Uacute" unicode="&#xda;" 
d="M272 731h44q26 0 35 23l21 54q1 4 -0.5 5.5t-3.5 1.5h-3h-54zM415 700v-618q0 -36 -25 -60t-61 -25v-1h-55q-37 0 -63 25t-26 61v598q2 20 21 20h51v-605q0 -16 10.5 -27t26.5 -11h11q16 0 27 11t11 27v605h72z" />
    <glyph glyph-name="Ucircumflex" unicode="&#xdb;" 
d="M217 731h29q23 0 38 23l16 22l15 -22q15 -23 39 -23h29l-58 84h-50zM415 700v-618q0 -36 -25 -60t-61 -25v-1h-55q-37 0 -63 25t-26 61v598q2 20 21 20h51v-605q0 -16 10.5 -27t26.5 -11h11q16 0 27 11t11 27v605h72z" />
    <glyph glyph-name="agrave" unicode="&#xe0;" horiz-adv-x="560" 
d="M240 730h54l7 8l-21 54q-9 23 -35 23h-44zM422 0l-101 662q-2 12 -4.5 19t-11 13t-22.5 6h-39l-106 -700h79l63 482l63 -482h79z" />
    <glyph glyph-name="aacute" unicode="&#xe1;" horiz-adv-x="560" 
d="M250 731h44q26 0 35 23l21 54q1 4 -0.5 5.5t-3.5 1.5h-3h-54zM422 0l-101 662q-2 12 -4.5 19t-11 13t-22.5 6h-39l-106 -700h79l63 482l63 -482h79z" />
    <glyph glyph-name="acircumflex" unicode="&#xe2;" horiz-adv-x="560" 
d="M194 731h29q23 0 38 23l16 22l15 -22q15 -23 39 -23h29l-58 84h-50zM422 0l-101 662q-2 12 -4.5 19t-11 13t-22.5 6h-39l-106 -700h79l63 482l63 -482h79z" />
    <glyph glyph-name="atilde" unicode="&#xe3;" horiz-adv-x="560" 
d="M187 731h29l10 7q3 26 52 6q2 -1 3 -1q27 -11 45 -6t23 19t8 29t0 24h-28q-11 2 -11 -10q-1 -19 -13.5 -20.5t-37.5 9.5q-43 14 -60.5 1.5t-18.5 -35.5zM422 0l-101 662q-2 12 -4.5 19t-11 13t-22.5 6h-39l-106 -700h79l63 482l63 -482h79z" />
    <glyph glyph-name="ccedilla" unicode="&#xe7;" 
d="M392 472q-1 0 -52 -23v156q0 16 -11 27.5t-27 11.5t-27 -11.5t-11 -27.5v-511q0 -16 11 -27t27 -11t27 11t11 27v95q0 28 20 39q1 0 52 23v-169q0 -36 -25.5 -61.5t-61.5 -27.5h-8v-9q39 -9 39 -51q0 -28 -19.5 -41.5t-38.5 -13.5h-20l1 8q2 13 13 14q9 1 17 9t7 20
q0 12 -8.5 20.5t-19.5 8.5h-5v35h-2q-37 0 -63 26t-26 63v536q0 37 26 63t63 26h44q36 -2 61.5 -27.5t25.5 -61.5v-107q0 -28 -20 -39z" />
    <glyph glyph-name="egrave" unicode="&#xe8;" 
d="M290 730h54l7 8l-21 54q-9 23 -35 23h-44zM291 71h150q-3 -7 -8.5 -19.5t-9.5 -21t-5 -11.5q-11 -19 -39 -19h-160v680q2 20 22 20h187l-24 -52q-9 -20 -38 -20h-58q-17 0 -17 -17v-208h108q-3 -7 -8.5 -19.5t-9.5 -21.5t-5 -12q-11 -19 -38 -19h-30q-7 0 -12 -5t-5 -12
v-243z" />
    <glyph glyph-name="eacute" unicode="&#xe9;" 
d="M292 731h44q26 0 35 23l21 54q1 4 -0.5 5.5t-3.5 1.5h-3h-54zM291 71h150q-3 -7 -8.5 -19.5t-9.5 -21t-5 -11.5q-11 -19 -39 -19h-160v680q2 20 22 20h187l-24 -52q-9 -20 -38 -20h-58q-17 0 -17 -17v-208h108q-3 -7 -8.5 -19.5t-9.5 -21.5t-5 -12q-11 -19 -38 -19h-30
q-7 0 -12 -5t-5 -12v-243z" />
    <glyph glyph-name="ecircumflex" unicode="&#xea;" 
d="M244 731h29q23 0 38 23l16 22l15 -22q15 -23 39 -23h29l-58 84h-50zM291 71h150q-3 -7 -8.5 -19.5t-9.5 -21t-5 -11.5q-11 -19 -39 -19h-160v680q2 20 22 20h187l-24 -52q-9 -20 -38 -20h-58q-17 0 -17 -17v-208h108q-3 -7 -8.5 -19.5t-9.5 -21.5t-5 -12q-11 -19 -38 -19
h-30q-7 0 -12 -5t-5 -12v-243z" />
    <glyph glyph-name="igrave" unicode="&#xec;" horiz-adv-x="500" 
d="M213 730h54l7 8l-21 54q-9 23 -35 23h-44zM214 700h43q14 0 21.5 -8.5t7.5 -19.5v-672h-51q-18 0 -21 15v685z" />
    <glyph glyph-name="iacute" unicode="&#xed;" horiz-adv-x="500" 
d="M217 731h44q26 0 35 23l21 54q1 4 -0.5 5.5t-4.5 1.5h-2h-54zM214 700h43q14 0 21.5 -8.5t7.5 -19.5v-672h-51q-18 0 -21 15v685z" />
    <glyph glyph-name="icircumflex" unicode="&#xee;" horiz-adv-x="500" 
d="M163 731h29q23 0 38 23l16 22l15 -22q15 -23 39 -23h29l-58 84h-50zM214 700h43q14 0 21.5 -8.5t7.5 -19.5v-672h-51q-18 0 -21 15v685z" />
    <glyph glyph-name="ntilde" unicode="&#xf1;" 
d="M217 731h29l10 7q3 26 52 6q2 -1 3 -1q27 -11 45 -6t23 19t8 29t0 24h-28q-11 2 -11 -10q-1 -19 -13.5 -20.5t-37.5 9.5q-43 14 -60.5 1.5t-18.5 -35.5zM415 700v-700h-33q-18 0 -29 9.5t-14 16.5t-5 19l-77 346v-391h-72v700h33q27 0 37 -10t14 -29l74 -364v403h72z" />
    <glyph glyph-name="ograve" unicode="&#xf2;" 
d="M262 730h54l7 8l-21 54q-9 23 -35 23h-44zM274 707h55q36 -2 61.5 -27.5t25.5 -61.5v-537q-1 -36 -26 -61t-61 -27h-55q-37 0 -63 26t-27 62v537q0 37 26.5 63t63.5 26zM294 56h11q16 0 27 11.5t11 27.5v510q0 16 -11 27.5t-27 11.5h-11q-16 -1 -27 -12t-11 -27v-510
q0 -16 11 -27t27 -12z" />
    <glyph glyph-name="oacute" unicode="&#xf3;" 
d="M272 731h44q26 0 35 23l21 54q1 4 -0.5 5.5t-3.5 1.5h-3h-54zM274 707h55q36 -2 61.5 -27.5t25.5 -61.5v-537q-1 -36 -26 -61t-61 -27h-55q-37 0 -63 26t-27 62v537q0 37 26.5 63t63.5 26zM294 56h11q16 0 27 11.5t11 27.5v510q0 16 -11 27.5t-27 11.5h-11
q-16 -1 -27 -12t-11 -27v-510q0 -16 11 -27t27 -12z" />
    <glyph glyph-name="ocircumflex" unicode="&#xf4;" 
d="M217 731h29q23 0 38 23l16 22l15 -22q15 -23 39 -23h29l-58 84h-50zM274 707h55q36 -2 61.5 -27.5t25.5 -61.5v-537q-1 -36 -26 -61t-61 -27h-55q-37 0 -63 26t-27 62v537q0 37 26.5 63t63.5 26zM294 56h11q16 0 27 11.5t11 27.5v510q0 16 -11 27.5t-27 11.5h-11
q-16 -1 -27 -12t-11 -27v-510q0 -16 11 -27t27 -12z" />
    <glyph glyph-name="otilde" unicode="&#xf5;" 
d="M211 731h29l10 7q3 26 52 6q2 -1 3 -1q27 -11 45 -6t23 19t8 29t0 24h-28q-11 2 -11 -10q-1 -19 -13.5 -20.5t-37.5 9.5q-43 14 -60.5 1.5t-18.5 -35.5zM274 707h55q36 -2 61.5 -27.5t25.5 -61.5v-537q-1 -36 -26 -61t-61 -27h-55q-37 0 -63 26t-27 62v537q0 37 26.5 63
t63.5 26zM294 56h11q16 0 27 11.5t11 27.5v510q0 16 -11 27.5t-27 11.5h-11q-16 -1 -27 -12t-11 -27v-510q0 -16 11 -27t27 -12z" />
    <glyph glyph-name="ugrave" unicode="&#xf9;" 
d="M262 730h54l7 8l-21 54q-9 23 -35 23h-44zM415 700v-618q0 -36 -25 -60t-61 -25v-1h-55q-37 0 -63 25t-26 61v598q2 20 21 20h51v-605q0 -16 10.5 -27t26.5 -11h11q16 0 27 11t11 27v605h72z" />
    <glyph glyph-name="uacute" unicode="&#xfa;" 
d="M272 731h44q26 0 35 23l21 54q1 4 -0.5 5.5t-3.5 1.5h-3h-54zM415 700v-618q0 -36 -25 -60t-61 -25v-1h-55q-37 0 -63 25t-26 61v598q2 20 21 20h51v-605q0 -16 10.5 -27t26.5 -11h11q16 0 27 11t11 27v605h72z" />
    <glyph glyph-name="ucircumflex" unicode="&#xfb;" 
d="M217 731h29q23 0 38 23l16 22l15 -22q15 -23 39 -23h29l-58 84h-50zM415 700v-618q0 -36 -25 -60t-61 -25v-1h-55q-37 0 -63 25t-26 61v598q2 20 21 20h51v-605q0 -16 10.5 -27t26.5 -11h11q16 0 27 11t11 27v605h72z" />
    <glyph glyph-name="circumflex" unicode="&#x2c6;" 
d="M217 731h29q23 0 38 23l16 22l15 -22q15 -23 39 -23h29l-58 84h-50z" />
    <glyph glyph-name="tilde" unicode="&#x2dc;" 
d="M216 731h29l10 7q3 26 52 6q2 -1 3 -1q27 -11 45 -6t23 19t8 29t0 24h-28q-11 2 -11 -10q-1 -19 -13.5 -20.5t-37.5 9.5q-43 14 -60.5 1.5t-18.5 -35.5z" />
    <glyph glyph-name="endash" unicode="&#x2013;" horiz-adv-x="500" 
d="M369 324v-26q0 -9 -6.5 -15.5t-14.5 -6.5h-217v27q0 8 6.5 14.5t14.5 6.5h217z" />
    <glyph glyph-name="quoteleft" unicode="&#x2018;" horiz-adv-x="499" 
d="M224 580v98q0 9 -6.5 15.5t-14.5 6.5h-27v-99q0 -8 6.5 -14.5t15.5 -6.5h26z" />
    <glyph glyph-name="quoteright" unicode="&#x2019;" horiz-adv-x="500" 
d="M224 580v98q0 9 -6.5 15.5t-14.5 6.5h-27v-99q0 -8 6.5 -14.5t15.5 -6.5h26z" />
    <glyph glyph-name="quotesinglbase" unicode="&#x201a;" horiz-adv-x="500" 
d="M248 88v-85q0 -27 -14 -42t-28 -17l-15 -1v21q9 0 13.5 7t4.5 13v7v9h-12q-8 0 -14 6.5t-7 14.5v56q0 11 12 11h60z" />
    <glyph glyph-name="quotedblleft" unicode="&#x201c;" horiz-adv-x="500" 
d="M234 580v98q0 9 -6.5 15.5t-14.5 6.5h-27v-99q0 -8 6.5 -14.5t15.5 -6.5h26zM314 580h-26q-9 0 -15.5 6.5t-6.5 14.5v99h27q9 0 15 -6.5t6 -15.5v-98z" />
    <glyph glyph-name="quotedblright" unicode="&#x201d;" horiz-adv-x="580" 
d="M224 580v98q0 9 -6.5 15.5t-14.5 6.5h-27v-99q0 -8 6.5 -14.5t15.5 -6.5h26zM304 580h-26q-9 0 -15.5 6.5t-6.5 14.5v99h27q9 0 15 -6.5t6 -15.5v-98z" />
    <glyph glyph-name="quotedblbase" unicode="&#x201e;" horiz-adv-x="500" 
d="M248 88v-85q0 -27 -14 -42t-28 -17l-15 -1v21q9 0 13.5 7t4.5 13v7v9h-12q-8 0 -14 6.5t-7 14.5v56q0 11 12 11h60z" />
    <glyph glyph-name="bullet" unicode="&#x2022;" horiz-adv-x="500" 
d="M236 256h-51q-19 0 -21 21v67h60q5 0 8 -3t4 -5v-3v-77z" />
    <glyph glyph-name="fraction" unicode="&#x2044;" 
 />
    <glyph glyph-name="Euro" unicode="&#x20ac;" 
d="M408 543l-52 -24v86q0 17 -11 28t-28 11q-16 0 -27 -11.5t-11 -27.5v-190h114v-27q0 -9 -6.5 -15.5t-15.5 -6.5h-92v-31h114v-27q0 -9 -6.5 -15.5t-15.5 -6.5h-92v-192q0 -16 11 -27t27 -11t27.5 11t11.5 27v25q0 28 19 39q21 11 53 24l-1 -100q0 -36 -25 -61.5
t-61 -27.5h-44q-37 0 -63.5 26t-26.5 63v204h-61v27q0 20 22 22h39v31h-61v27q0 20 22 22h39v203q0 37 26.5 63t63.5 26h44q36 -2 61.5 -27.5t25.5 -61.5v-37q0 -29 -20 -38z" />
    <glyph glyph-name="trademark" unicode="&#x2122;" horiz-adv-x="1170" 
d="M441 700l-24 -52q-8 -19 -38 -19h-56q-16 0 -18 -17v-612h-51q-20 0 -20 15v614h-101v49q0 9 6.5 15.5t15.5 6.5h286zM1017 700v-700h-71v361l-54 -240h-22q-39 0 -53 54q-1 2 -1 3l-42 183v-361h-71v700h44q12 0 20 -6.5t10 -13.5l2 -6l83 -402l79 403q8 25 32 25h44z
" />
  </font>
</defs>
</svg>
